#TITLE:Colors Y&Co;
#SUBTITLE:(Eurobeat Mix);
#ARTIST:DJ Taka VS Yokota Shokai;
#TITLETRANSLIT:;
#SUBTITLETRANSLIT:;
#ARTISTTRANSLIT:;
#CREDIT:;
#BANNER:;
#BACKGROUND:;
#LYRICSPATH:;
#CDTITLE:;
#MUSIC:Colors Y&Co.mp3;
#MUSICLENGTH:89.547;
#OFFSET:0.380;
#SAMPLESTART:25.745;
#SAMPLELENGTH:12.000;
#SELECTABLE:YES;
#BPMS:0.000=155.120;
#STOPS:;
#BGCHANGES:;
#FIRSTBEAT:12.000;

#LASTBEAT:228.500;

#SONGFILENAME:Songs/EXTRA/Colors Y&Co/Colors Y&Co.sm;

#HASMUSIC:1;

#HASBANNER:0;


//---------------dance-single - MANIAC----------------
#NOTES:
     dance-single:
     MANIAC:
     hard:
     7:
     0.463,0.574,0.369,0.156,0.006,243.000,33.000,14.000,0.000,0.000:

0000
0000
0000
0000
,
0000
0000
0000
0000
,
0000
0000
0000
0000
,
0000
0000
0000
0000
,
1000
0000
0001
0000
1000
0000
0010
0001
,
0100
0000
1000
0000
0100
0010
0000
0010
,
0000
0010
0001
0000
0100
0000
0010
0001
,
1000
0000
0000
0000
1000
0000
0000
0000
0100
0000
0000
0100
0000
0000
0100
0000
,
0020
0000
0000
0000
,
1030
0000
0100
0000
0001
0000
0100
1000
,
0000
0010
0000
0010
0000
1000
0000
0001
,
0000
0000
0110
0000
1000
0000
0100
0010
,
0000
0001
0000
1000
0000
0100
0001
0000
,
0000
0000
1000
0000
0100
0000
0010
0101
,
0000
1000
0000
0100
0000
0010
0011
0000
,
0000
0000
1000
0000
0010
1000
0000
0101
,
0000
1100
0000
0100
0000
0100
0011
0000
,
1020
0000
1000
0000
0000
1030
0010
0000
,
0021
0000
0001
0000
0000
0031
0010
0000
,
0100
0010
0001
0000
0010
0001
0100
0100
,
0000
0100
0001
0000
0001
1000
0000
0000
,
0110
0000
0101
0000
0000
0001
0001
0001
,
0000
1000
0010
1000
,
0010
0001
0001
0000
0010
1000
1000
0000
,
0001
0010
1000
0100
1000
0010
0001
0000
,
1100
1010
1100
1001
,
0101
0011
0101
1001
,
0110
0000
0011
0000
1010
0000
1100
1000
,
0100
0000
0100
0010
0000
0010
0100
0000
,
0011
1100
0110
0110
,
0100
0001
0100
1000
0010
0000
1000
0001
,
2002
0000
0003
0000
0000
3000
0010
1000
,
0200
0000
0000
0000
0000
0300
0000
0000
,
0010
0000
0010
0000
0010
0001
0010
0000
,
0002
0000
0010
0000
1000
0003
0100
0001
,
0010
0000
0100
1000
0010
0000
0110
0000
,
2020
0000
0030
0000
,
3020
0000
0200
0000
,
0330
1001
0110
1001
,
0102
0000
1000
0000
0000
0000
1000
1003
,
1000
0000
0010
0010
0010
0010
0001
0001
,
0000
1000
0000
0001
0100
0010
1000
0100
,
0001
0000
1000
0000
0010
1000
0000
0100
,
0000
0010
0001
0000
1000
0000
0100
0000
,
1000
0000
0010
1000
0100
0001
0000
0100
,
0000
1000
0010
0000
1000
0010
1000
0000
,
0001
0010
0001
0000
0100
1000
0001
0000
,
0100
0001
1000
0000
0100
0010
0100
1000
,
0001
0000
0100
0010
0100
0001
1000
0000
,
0100
0010
0200
0000
0010
0000
0010
0000
,
0001
1000
0010
1000
,
1000
0000
0010
0000
0010
0300
0010
1000
,
0001
0000
0100
0000
0010
1000
0001
0000
,
0100
0001
1000
0000
0100
0000
1000
0010
,
1000
0000
0001
0100
0001
1000
0100
0000
,
0010
0000
0100
0000
0010
0100
0010
0100
,
0020
0000
0000
0000
,
0100
0030
0000
0000
0000
0000
0000
0000;

//---------------dance-single - ANOTHER----------------
#NOTES:
     dance-single:
     ANOTHER:
     medium:
     3:
     0.223,0.318,0.056,0.078,0.000,128.000,5.000,7.000,0.000,0.000:

0000
0000
0000
0000
,
0000
0000
0000
0000
,
0000
0000
0000
0000
,
0000
0001
0000
1000
,
0000
0100
0000
0100
,
0000
1000
0000
0001
,
0000
0100
0000
0100
,
0000
0010
0000
1000
,
0002
0000
0000
0000
,
1003
0000
0100
0000
,
0010
0100
0100
0000
,
0001
0000
1000
0000
,
0010
0100
0100
0000
,
1000
1000
0000
0000
,
0001
0001
0000
0000
,
0100
0100
0000
0000
,
0020
0000
0000
0000
,
0130
0000
1000
0000
,
0001
0000
0100
0000
,
1000
0000
0010
0000
,
0001
0000
0010
0000
,
1000
0000
0001
0000
,
0010
0000
0100
0000
,
1000
0000
0000
0000
,
1000
0001
1000
0001
,
0010
0000
0000
0000
,
0100
0000
0000
0000
,
0001
0000
0000
0000
,
1000
0010
1000
0010
,
0100
0000
0000
0001
,
0100
0000
0000
0001
,
2000
0000
0000
0000
,
3001
0010
0100
0100
,
1000
0010
0100
0100
,
0001
0010
0100
0100
,
1000
0010
0100
0100
,
1001
0000
0000
0000
,
1001
0000
0000
0001
,
1000
0000
0001
0000
,
1000
0200
0010
0010
,
0310
0001
1000
0000
,
0001
1000
0001
0000
,
1000
0001
1000
0000
,
0010
0100
0010
0000
,
0100
0010
0100
0000
,
0010
1000
0100
0000
,
0010
0001
0100
0000
,
0001
1000
0010
0000
,
1000
0001
0010
0000
,
0001
1000
0010
0000
,
1000
0001
0010
0010
,
0010
0010
0010
0010
,
0002
0000
0000
0000
,
2000
0000
0000
3003
,
1001
0000
0000
0000
,
1001
0001
1000
0001
,
1200
0000
0000
0000
,
0300
0000
0000
0000;

//---------------dance-single - BASIC----------------
#NOTES:
     dance-single:
     BASIC:
     easy:
     2:
     0.142,0.223,0.056,0.168,0.000,69.000,5.000,15.000,0.000,0.000:

0000
0000
0000
0000
,
0000
0000
0000
0000
,
0000
0000
0000
0000
,
0100
0000
0000
0000
,
0100
0000
0000
0000
,
0100
0000
0000
0000
,
0100
0000
0000
0000
,
0200
0000
0000
0000
,
0000
0000
0000
0300
,
0010
0000
0000
0000
,
0100
0000
0000
0010
,
0001
0000
0000
0000
,
0100
0000
0000
0000
,
0010
0000
0000
1000
,
0010
0000
0000
0000
,
0100
0000
0000
0000
,
2002
0000
0000
3003
,
0001
0000
0000
0000
,
1000
0000
0000
0000
,
1001
0000
0000
0000
,
0100
0000
0000
0000
,
0010
0000
0000
0000
,
0110
0000
0000
0000
,
0110
0000
0010
0000
,
0110
0000
0010
0000
,
0002
0000
0000
0000
,
0000
0000
0000
1000
,
2003
0000
0000
0000
,
0000
0000
0000
0010
,
3020
0000
0000
0000
,
0000
0000
0000
0100
,
0230
0000
0000
0000
,
0301
0000
0000
0000
,
1000
0000
0001
0000
,
1000
0000
0000
0000
,
0010
0000
0001
0000
,
0010
0000
0000
0000
,
0010
0000
0100
0000
,
0010
0000
0000
0000
,
1000
0000
0100
0000
,
1000
0000
0000
0000
,
0100
0000
0001
0000
,
1000
0000
0001
0000
,
0100
0000
0001
0000
,
0010
0000
0010
0000
,
0010
0000
0010
0000
,
0010
0000
0100
0000
,
0100
0100
0100
0100
,
0200
0000
0000
0000
,
0320
0000
0000
0000
,
0230
0000
0000
0000
,
0302
0000
0000
0000
,
2003
0000
0000
0000
,
3020
0000
0000
0000
,
0230
0000
0000
0000
,
0002
0000
0000
0000
,
0000
0000
0000
0000
,
0303
0000
0000
0000;
